Celebrity Big Brother S20E16 HDTV x264-PLUTONiUM[rarbg] | Time Of Dog And Wolf | Members Registration is closed at the moment

TV - Other

Emmerdale (3rd July 2008) PDTV (Xvid) xtremespeeds net

  • Download 5x Faster
  • Download torrent
  • Direct Download
  • Rate this torrent +  |  -
Emmerdale (3rd July 2008) PDTV (Xvid) xtremespeeds net

Anonymous and Free Direct Download 300GB+


Torrent info

Name:Emmerdale (3rd July 2008) PDTV (Xvid) xtremespeeds net

Total Size: 174.73 MB

Magnet: Magnet Link

Seeds: 4

Leechers: 2

Stream: Watch Online @ Movie4u

Last Updated: 2009-11-22 23:08:32 (Update Now)

Torrent added: 2008-07-03 21:37:52



VPN For Torrents

Torrent Files List


Emmerdale (3rd July 2008) [PDTV (Xvid)].avi (Size: 174.73 MB) (Files: 2)

 Emmerdale (3rd July 2008) [PDTV (Xvid)].avi

174.73 MB

 Emmerdale (3rd July 2008) [PDTV (Xvid)].nfo

2.50 KB
 

Announce URL: http://xtremespeeds.net/announce.php?passkey=tssespecialtorrentv1byxamsep2007

Torrent description

Emmerdale (3rd July 2008) [PDTV (Xvid)].avi

website:-
http://www.itv.com/Soaps/emmerdale/default.html

Emmerdale (Soap)
Time - 19:00 - 19:30 (30 minutes long)
When - Thursday 3rd July on ITV1 London
Debbie's gutted when Eli turns her down. Louise is alarmed when Viv tells her she has a guilty secret. Katie decides to opt for an elective caesarean.
Director: Sarah Punshon
Starring: Charley Webb, Joseph Gilgun, Emily Symons, Deena Payne, Sammy Winward, Christopher Villiers
(Stereo, Widescreen, Subtitles, Audio Described)

Video info:-

Complete name : Emmerdale (3rd July 2008) [PDTV (Xvid)].avi
Format : AVI
Format/Info : Audio Video Interleave
File size : 175 MiB
Duration : 21mn 31s
Overal bit rate : 1135 Kbps
Writing application : VirtualDubMod 1.5.4.1 (build 2178/release)
Writing library : VirtualDubMod build 2178/release

Video
Format : MPEG-4 Visual
Format settings, BVOP : No
Format settings, QPel : No
Format settings, GMC : 0 warppoint
Format settings, Matrix : Default
Codec ID : XVID
Codec ID/Hint : XviD
Duration : 21mn 31s
Bit rate : 1000 Kbps
Width : 640 pixels
Height : 368 pixels
Display aspect ratio : 16/9
Frame rate : 25.000 fps
Resolution : 8 bits
Colorimetry : 4:2:0
Scan type : Progressive
Bits/(Pixel*Frame) : 0.170
Stream size : 154 MiB
Writing library : XviD 1.0.1
Writing library/Date : UTC 2004-06-05

Audio
Format : MPEG Audio
Format version : Version 1 / Layer 3
Codec ID : 55
Codec ID/Hint : MP3
Duration : 21mn 31s
Bit rate mode : CBR
Bit rate : 128 Kbps
Minimum bit rate : 128 Kbps
Channel(s) : 2 channels
Sampling rate : 48.0 KHz
Resolution : 16 bits
Stream size : 19.7 MiB
Writing library : LAME3.97
Encoding settings : CBR

related torrents

Torrent name

health leech seeds Size
 


comments (0)

Main Menu