A Ghost Story 2017 720p BRRip 650 MB - iExTV | LEGO BIONICLE: JORNADA ÉPICA 1ª TEMPORADA | Educations and School

Movies - Other

6 Days 2017 WEB-DL XviD MP3-FGT

  • Download 5x Faster
  • Download torrent
  • Direct Download
  • Rate this torrent +  |  -
6 Days 2017 WEB-DL XviD MP3-FGT

Anonymous and Free Direct Download


Torrent info

Name:6 Days 2017 WEB-DL XviD MP3-FGT

Total Size: 1.34 GB

Magnet: Magnet Link

Seeds: 443

Leechers: 186

Stream: Watch Online @ Movie4u

Last Updated: 2017-08-21 09:31:38 (Update Now)

Torrent added: 2017-08-18 09:01:08





Torrent Files List


6.Days.2017.WEB-DL.XviD.MP3-FGT.avi (Size: 1.34 GB) (Files: 4)

 6.Days.2017.WEB-DL.XviD.MP3-FGT.avi

1.34 GB

 English-FORCED.srt

1.52 KB

 English.srt

106.46 KB

 RARBG.txt

0.03 KB
 

tracker

leech seeds
 

Torrent description

http://lookimg.com/image/A0AME

http://lookimg.com/image/A0BNd

http://lookimg.com/image/A0OQ9

http://lookimg.com/image/A0ght

Video
ID : 0
Format : MPEG-4 Visual
Format profile : [emailprotected]/* */
Format settings, BVOP : No
Format settings, QPel : No
Format settings, GMC : No warppoints
Format settings, Matrix : Default (H.263)
Codec ID : XVID
Codec ID/Hint : XviD
Duration : 1 h 34 min
Bit rate : 1 827 kb/s
Width : 720 pixels
Height : 304 pixels
Display aspect ratio : 2.40:1
Frame rate : 23.976 (24000/1001) FPS
Color space : YUV
Chroma subsampling : 4:2:0
Bit depth : 8 bits
Scan type : Progressive
Compression mode : Lossy
Bits/(Pixel*Frame) : 0.348
Stream size : 1.20 GiB (90%)
Writing library : Lavc57.100.103

Audio
ID : 1
Format : MPEG Audio
Format version : Version 1
Format profile : Layer 3
Mode : Joint stereo
Mode extension : MS Stereo
Codec ID : 55
Codec ID/Hint : MP3
Duration : 1 h 34 min
Bit rate mode : Constant
Bit rate : 192 kb/s
Channel(s) : 2 channels
Sampling rate : 48.0 kHz
Compression mode : Lossy
Stream size : 130 MiB (9%)
Alignment : Aligned on interleaves
Interleave, duration : 24 ms (0.58 video frame)
Interleave, preload duration : 504 ms
Writing library : LAME3.99.5

related torrents

Torrent name

health leech seeds Size
 


comments (0)

Main Menu