La puerta abierta (2016) reloj libre de la película completa .avi | La Pazza Gioia STREAMING ITA (2016) | Season 3 Episode 2 Vienna Inn

Animation

Wall E TS XviD PreVail avi

  • Download 5x Faster
  • Download torrent
  • Direct Download
  • Rate this torrent +  |  -
Wall E TS XviD PreVail avi

Anonymous and Free Direct Download 300GB+


Torrent info

Name:Wall E TS XviD PreVail avi

Total Size: 698.08 MB

Magnet: Magnet Link

Seeds: 1

Leechers: 419

Stream: Watch Online @ Movie4u

Last Updated: 2010-08-07 04:37:58 (Update Now)

Torrent added: 2008-07-06 21:34:01



VPN For Torrents

Torrent Files List


Logo.jpg (Size: 698.08 MB) (Files: 2)

 Logo.jpg

205.50 KB

 Wall E - TS.XviD-PreVail.AVI.avi

697.88 MB
 

Announce URL: http://open.tracker.thepiratebay.org/announce

Torrent description

General
Complete name : Wall E - TS.XviD-PreVail.AVI.avi
Format : AVI
Format/Info : Audio Video Interleave
File size : 698 MiB
Duration : 1h 28mn
Overal bit rate : 1101 Kbps
Writing application : Nandub v1.0rc2
Writing library : Nandub build 1852/release

Video
Format : MPEG-4 Visual
Format profile : Streaming [email protected]
Format settings, BVOP : Yes
Format settings, QPel : No
Format settings, GMC : No warppoints
Format settings, Matrix : Default
Muxing mode : Packet Bitstream
Codec ID : XVID
Codec ID/Hint : XviD
Duration : 1h 28mn
Bit rate : 968 Kbps
Width : 640 pixels
Height : 272 pixels
Display aspect ratio : 2.35
Frame rate : 25.000 fps
Resolution : 8 bits
Colorimetry : 4:2:0
Scan type : Progressive
Bits/(Pixel*Frame) : 0.222
Stream size : 613 MiB
Writing library : XviD 1.1.2 (UTC 2006-11-01)

Audio
Format : MPEG Audio
Format version : Version 1
Format profile : Layer 3
Codec ID : 55
Codec ID/Hint : MP3
Duration : 1h 28mn
Bit rate mode : Variable
Bit rate : 121 Kbps
Nominal bit rate : 128 Kbps
Channel(s) : 2 channels
Sampling rate : 44.1 KHz
Resolution : 16 bits
Stream size : 76.6 MiB
Writing library : LAME3.90.
Encoding settings : ABR

Hash 9DF43577 CCABC602 2B5CFCEB F3C94F0A 3E7A0769

Trackers

http://open.tracker.thepiratebay.org/announce

http://denis.stalker.h3q.com:6969/announce

http://www.torrentsnipe.info:2701/announce

http://vip.tracker.thepiratebay.org:80/announce


Screens

Wall E   TS XviD PreVail avi preview 0

Wall E   TS XviD PreVail avi preview 1

Wall E   TS XviD PreVail avi preview 2

Wall E   TS XviD PreVail avi preview 3

related torrents

Torrent name

health leech seeds Size

Wall E TS XviD PreVail

1 1 721.68 MB 0

Wall E TS XviD prevail

670 2 697.88 MB 0

Wall E TS XviD PreVail net

2 14 712.06 MB 0

Wall E TS XviD PreVail

0 0 721.68 MB 0
 


comments (0)

Main Menu