The Profit | hollywood movie | August 17, 2017

Drama

Out of Africa (1985) awesome DVDrip

  • Download 5x Faster
  • Download torrent
  • Direct Download
  • Rate this torrent +  |  -
Out of Africa (1985) awesome DVDrip

Anonymous and Free Direct Download 300GB+


Torrent info

Name:Out of Africa (1985) awesome DVDrip

Total Size: 694.58 MB

Magnet: Magnet Link

Seeds: 4

Leechers: 2

Stream: Watch Online @ Movie4u

Last Updated: 2017-08-20 22:43:42 (Update Now)

Torrent added: 2008-07-07 15:39:19



VPN For Torrents

Torrent Files List


Notes on subtitle files.txt (Size: 694.58 MB) (Files: 3)

 Notes on subtitle files.txt

1.68 KB

 Out_of_Africa.avi

693.68 MB

 Out_of_Africa_subtitles.rar

919.24 KB
 

Announce URL:

Torrent description

Out of Africa (1985)
Optional Swedish subtitles in separate idx/sub files.

For those of you who cannot download such dinosaurs.

Karen Blixen's eternal love story from Kenya won 7 Oscars. Thank you, Denmark!

Meryl Streep developed her convincing Danish accent by listening to actual recordings of Karen Blixen reading her works.
More fun stuff at IMDb Trivia

DVDrip, widescreen, XviD 2-pass 704x384, great stereo sound.
Burn tested, runs well in both my standalone DivX players.

My new ripping procedure now gives decent quality for such a long film compressed into just 700 MiB.


Format/Info : Audio Video Interleave
File size : 694 MiB
Duration : 2h 34mn
Overal bit rate : 629 Kbps

Video
Format : MPEG-4 Visual
Format profile : Streaming [email protected]
Format settings, BVOP : Yes
Format settings, QPel : No
Format settings, GMC : No warppoints
Format settings, Matrix : Default
Muxing mode : Packet Bitstream
Codec ID : XVID
Codec ID/Hint : XviD
Duration : 2h 34mn
Bit rate : 491 Kbps
Width : 704 pixels
Height : 384 pixels
Display aspect ratio : 16/9
Frame rate : 25.000 fps
Resolution : 8 bits
Colorimetry : 4:2:0
Scan type : Progressive
Bits/(Pixel*Frame) : 0.073
Stream size : 542 MiB
Writing library : XviD 1.2.0.dev47 (UTC 2006-11-01)

Audio
Format : MPEG Audio
Format version : Version 1
Format profile : Layer 3
Codec ID : 55
Codec ID/Hint : MP3
Duration : 2h 34mn
Bit rate mode : Constant
Bit rate : 128 Kbps
Minimum bit rate : 128 Kbps
Channel(s) : 2 channels
Sampling rate : 48.0 KHz
Resolution : 16 bits
Stream size : 141 MiB
Writing library : LAME3.97
Encoding settings : CBR

Source: PAL retail DVD 7.87 GiB
(Note that the Avi container will work independently of PAL/NTSC.)

related torrents

Torrent name

health leech seeds Size

Out of Africa (1985) OST

0 0 47.44 MB 0
 


comments (0)

Main Menu