- Nightmare Tenants Slum Landlords S02E01 HDTV x264-PLUTONiUM | Louise Gray - The Ethical Carnivore 2016 RETAiL ePUB eBOOK-DiSTRiBUTiON | Zac Efron

Fantasy

The Incredible Hulk 2008 TeleSync XviD Eng Xi0n

  • Download 5x Faster
  • Download torrent
  • Direct Download
  • Rate this torrent +  |  -
The Incredible Hulk 2008 TeleSync XviD Eng Xi0n

Anonymous and Free Direct Download 300GB+


Torrent info

Name:The Incredible Hulk 2008 TeleSync XviD Eng Xi0n

Total Size: 750.65 MB

Magnet: Magnet Link

Seeds: 0

Leechers: 0

Stream: Watch Online @ Movie4u

Last Updated: 2016-03-26 15:42:49 (Update Now)

Torrent added: 2008-06-28 21:36:21



VPN For Torrents

Torrent Files List


sample (Size: 750.65 MB) (Files: 55)

 sample

  The.Incredible.Hulk.Sample.avi

13.91 MB

 The.Incredible.Hulk.2008.TeleSync.XviD.Eng-Xi0n.nfo

2.58 KB

 The.Incredible.Hulk.2008.TeleSync.XviD.Eng-Xi0n.r00

14.31 MB

 The.Incredible.Hulk.2008.TeleSync.XviD.Eng-Xi0n.r01

14.31 MB

 The.Incredible.Hulk.2008.TeleSync.XviD.Eng-Xi0n.r02

14.31 MB

 The.Incredible.Hulk.2008.TeleSync.XviD.Eng-Xi0n.r03

14.31 MB

 The.Incredible.Hulk.2008.TeleSync.XviD.Eng-Xi0n.r04

14.31 MB

 The.Incredible.Hulk.2008.TeleSync.XviD.Eng-Xi0n.r05

14.31 MB

 The.Incredible.Hulk.2008.TeleSync.XviD.Eng-Xi0n.r06

14.31 MB

 The.Incredible.Hulk.2008.TeleSync.XviD.Eng-Xi0n.r07

14.31 MB

 The.Incredible.Hulk.2008.TeleSync.XviD.Eng-Xi0n.r08

14.31 MB

 The.Incredible.Hulk.2008.TeleSync.XviD.Eng-Xi0n.r09

14.31 MB

 The.Incredible.Hulk.2008.TeleSync.XviD.Eng-Xi0n.r10

14.31 MB

 The.Incredible.Hulk.2008.TeleSync.XviD.Eng-Xi0n.r11

14.31 MB

 The.Incredible.Hulk.2008.TeleSync.XviD.Eng-Xi0n.r12

14.31 MB

 The.Incredible.Hulk.2008.TeleSync.XviD.Eng-Xi0n.r13

14.31 MB

 The.Incredible.Hulk.2008.TeleSync.XviD.Eng-Xi0n.r14

14.31 MB

 The.Incredible.Hulk.2008.TeleSync.XviD.Eng-Xi0n.r15

14.31 MB

 The.Incredible.Hulk.2008.TeleSync.XviD.Eng-Xi0n.r16

14.31 MB

 The.Incredible.Hulk.2008.TeleSync.XviD.Eng-Xi0n.r17

14.31 MB

 The.Incredible.Hulk.2008.TeleSync.XviD.Eng-Xi0n.r18

14.31 MB

 The.Incredible.Hulk.2008.TeleSync.XviD.Eng-Xi0n.r19

14.31 MB

 The.Incredible.Hulk.2008.TeleSync.XviD.Eng-Xi0n.r20

14.31 MB

 The.Incredible.Hulk.2008.TeleSync.XviD.Eng-Xi0n.r21

14.31 MB

 The.Incredible.Hulk.2008.TeleSync.XviD.Eng-Xi0n.r22

14.31 MB

 The.Incredible.Hulk.2008.TeleSync.XviD.Eng-Xi0n.r23

14.31 MB

 The.Incredible.Hulk.2008.TeleSync.XviD.Eng-Xi0n.r24

14.31 MB

 The.Incredible.Hulk.2008.TeleSync.XviD.Eng-Xi0n.r25

14.31 MB

 The.Incredible.Hulk.2008.TeleSync.XviD.Eng-Xi0n.r26

14.31 MB

 The.Incredible.Hulk.2008.TeleSync.XviD.Eng-Xi0n.r27

14.31 MB

 The.Incredible.Hulk.2008.TeleSync.XviD.Eng-Xi0n.r28

14.31 MB

 The.Incredible.Hulk.2008.TeleSync.XviD.Eng-Xi0n.r29

14.31 MB

 The.Incredible.Hulk.2008.TeleSync.XviD.Eng-Xi0n.r30

14.31 MB

 The.Incredible.Hulk.2008.TeleSync.XviD.Eng-Xi0n.r31

14.31 MB

 The.Incredible.Hulk.2008.TeleSync.XviD.Eng-Xi0n.r32

14.31 MB

 The.Incredible.Hulk.2008.TeleSync.XviD.Eng-Xi0n.r33

14.31 MB

 The.Incredible.Hulk.2008.TeleSync.XviD.Eng-Xi0n.r34

14.31 MB

 The.Incredible.Hulk.2008.TeleSync.XviD.Eng-Xi0n.r35

14.31 MB

 The.Incredible.Hulk.2008.TeleSync.XviD.Eng-Xi0n.r36

14.31 MB

 The.Incredible.Hulk.2008.TeleSync.XviD.Eng-Xi0n.r37

14.31 MB

 The.Incredible.Hulk.2008.TeleSync.XviD.Eng-Xi0n.r38

14.31 MB

 The.Incredible.Hulk.2008.TeleSync.XviD.Eng-Xi0n.r39

14.31 MB

 The.Incredible.Hulk.2008.TeleSync.XviD.Eng-Xi0n.r40

14.31 MB

 The.Incredible.Hulk.2008.TeleSync.XviD.Eng-Xi0n.r41

14.31 MB

 The.Incredible.Hulk.2008.TeleSync.XviD.Eng-Xi0n.r42

14.31 MB

 The.Incredible.Hulk.2008.TeleSync.XviD.Eng-Xi0n.r43

14.31 MB

 The.Incredible.Hulk.2008.TeleSync.XviD.Eng-Xi0n.r44

14.31 MB

 The.Incredible.Hulk.2008.TeleSync.XviD.Eng-Xi0n.r45

14.31 MB

 The.Incredible.Hulk.2008.TeleSync.XviD.Eng-Xi0n.r46

14.31 MB

 The.Incredible.Hulk.2008.TeleSync.XviD.Eng-Xi0n.r47

14.31 MB

 The.Incredible.Hulk.2008.TeleSync.XviD.Eng-Xi0n.r48

14.31 MB

 The.Incredible.Hulk.2008.TeleSync.XviD.Eng-Xi0n.r49

14.31 MB

 The.Incredible.Hulk.2008.TeleSync.XviD.Eng-Xi0n.r50

7.16 MB

 The.Incredible.Hulk.2008.TeleSync.XviD.Eng-Xi0n.rar

14.31 MB

 The.Incredible.Hulk.2008.TeleSync.XviD.Eng-Xi0n.sfv

7.90 KB
 

tracker

leech seeds
 

Torrent description

-------------------------------------------------------------------------------
General
-------------------------------------------------------------------------------
Format : Xvid
File size : 729 MiB
Duration : 1h 45mn
Overal bit rate : 967 Kbps

-------------------------------------------------------------------------------
Video
-------------------------------------------------------------------------------
Format : MPEG-4 Visual
Format profile : Streaming [email protected]
Format settings, BVOP : Yes
Format settings, QPel : No
Format settings, GMC : No warppoints
Format settings, Matrix : Default
Muxing mode : Packet Bitstream
Codec ID : XVID
Codec ID/Hint : XviD
Duration : 1h 45mn
Bit rate : 830 Kbps
Width : 608 pixels
Height : 256 pixels
Display aspect ratio : 2.35
Frame rate : 25.000 fps
Resolution : 8 bits
Colorimetry : 4:2:0
Scan type : Progressive
Bits/(Pixel*Frame) : 0.213
Stream size : 626 MiB
Writing library : XviD 1.2.0.dev47 (UTC 2006-11-01)


-------------------------------------------------------------------------------
Audio
-------------------------------------------------------------------------------
Format : MPEG Audio
Format version : Version 1
Format profile : Layer 3
Codec ID : 55
Codec ID/Hint : MP3
Duration : 1h 45mn
Bit rate mode : Constant
Bit rate : 128 Kbps
Minimum bit rate : 128 Kbps
Channel(s) : 2 channels
Sampling rate : 48.0 KHz
Resolution : 16 bits
Stream size : 96.5 MiB
Writing library : LAME3.97b
Encoding settings : CBR



Plot:

Fugitive Dr. Bruce Banner must utilize the genetic accident that transforms him into a giant, rampaging hulk to stop a former soldier that purposely becomes an even more dangerous version

Cast:

Edward Norton ... Bruce Banner
Liv Tyler ... Betty Ross
Tim Roth ... Emil Blonsky
Tim Blake Nelson ... Samuel Sterns
Ty Burrell ... Dr. Samson
William Hurt ... Gen. Thaddeus 'Thunderbolt' Ross
Christina Cabot ... Major Kathleen 'Kat' Sparr
Peter Mensah ... General Joe Greller
Lou Ferrigno ... Voice of The Incredible Hulk / Security Guard
Paul Soles ... Stanley
Débora Nascimento ... Martina
Greg Bryk ... Commando #1
Chris Owens ... Commando #2
Al Vrkljan ... Commando #3
Adrian Hein ... Commando #4

Brought to you by http://mad-jack.com/

related torrents

Torrent name

health leech seeds Size
 


comments (0)

Main Menu