Kachorra to ja | Read More | Vince Staples

Animation

Wall E TS LD Xvid

  • Download 5x Faster
  • Download torrent
  • Direct Download
  • Rate this torrent +  |  -
Wall E TS LD Xvid

Anonymous and Free Direct Download 300GB+


Torrent info

Name:Wall E TS LD Xvid

Total Size: 697.88 MB

Magnet: Magnet Link

Seeds: 3

Leechers: 7

Stream: Watch Online @ Movie4u

Last Updated: 2009-11-25 20:58:49 (Update Now)

Torrent added: 2008-07-14 21:35:01



VPN For Torrents

Torrent Files List


prv-walle.ts.xvid.avi (Size: 697.88 MB) (Files: 1)

 prv-walle.ts.xvid.avi

697.88 MB
 

Announce URL: http://www.the-new-generation.ws/announce.php

Torrent description

General
Complete name : Wall E - TS.XviD-PreVail.AVI.avi
Format : AVI
Format/Info : Audio Video Interleave
File size : 698 MiB
Duration : 1h 28mn
Overal bit rate : 1101 Kbps
Writing application : Nandub v1.0rc2
Writing library : Nandub build 1852/release

Video
Format : MPEG-4 Visual
Format profile : Streaming [email protected]
Format settings, BVOP : Yes
Format settings, QPel : No
Format settings, GMC : No warppoints
Format settings, Matrix : Default
Muxing mode : Packet Bitstream
Codec ID : XVID
Codec ID/Hint : XviD
Duration : 1h 28mn
Bit rate : 968 Kbps
Width : 640 pixels
Height : 272 pixels
Display aspect ratio : 2.35
Frame rate : 25.000 fps
Resolution : 8 bits
Colorimetry : 4:2:0
Scan type : Progressive
Bits/(Pixel*Frame) : 0.222
Stream size : 613 MiB
Writing library : XviD 1.1.2 (UTC 2006-11-01)

Audio
Format : MPEG Audio
Format version : Version 1
Format profile : Layer 3
Codec ID : 55
Codec ID/Hint : MP3
Duration : 1h 28mn
Bit rate mode : Variable
Bit rate : 121 Kbps
Nominal bit rate : 128 Kbps
Channel(s) : 2 channels
Sampling rate : 44.1 KHz
Resolution : 16 bits
Stream size : 76.6 MiB
Writing library : LAME3.90.
Encoding settings : ABR

related torrents

Torrent name

health leech seeds Size

Wall E Engl TS/LD

92 8 723.83 MB 0
 


comments (0)

Main Menu