Airlift (2016) | Read More... | Kaun Banega Crorepati Season 9

Blues

EAC FLACV A Preachin The Blues The Music Of Mississippi Fred McDowell (2002 Telarc)Colombo bt

  • Download 5x Faster
  • Download torrent
  • Direct Download
  • Rate this torrent +  |  -

Torrent info

Name:EAC FLACV A Preachin The Blues The Music Of Mississippi Fred McDowell (2002 Telarc)Colombo bt

Total Size: 279.05 MB

Magnet: Magnet Link

Seeds: 0

Leechers: 0

Stream: Watch Online @ Movie4u

Last Updated: 2011-01-26 11:36:35 (Update Now)

Torrent added: 2008-06-30 15:39:12



VPN For Torrents

Torrent Files List


01 - Get Right Church , Paul Geremia .flac (Size: 279.05 MB) (Files: 24)

 01 - Get Right Church , Paul Geremia .flac

33.19 MB

 02 - 61 Highway , Charlie Musselwhite .flac

20.48 MB

 03 - Kokomo Blues , Anders Osborne .flac

14.88 MB

 04 - Keep Your Lamp Trimmed And Burning , Colleen Sexton, Gregg Hoover .flac

26.53 MB

 05 - You Gotta Move , Brian Stotz .flac

23.67 MB

 06 - Train I Ride , Tab Benoit .flac

24.65 MB

 07 - I Heard Somebody Call , David Maxwell .flac

19.52 MB

 08 - Frisco Line , Sue Foley .flac

23.52 MB

 09 - Fred's Worried Life Blues , Kenny Neal .flac

17.03 MB

 10 - I Rolled And I Tumbled , Steve James .flac

19.89 MB

 11 - That's Alright , Johnny Sansone, Gregg Hoover .flac

40.18 MB

 12 - Good Morning Little Schoolgirl , Scott Holt .flac

14.04 MB

 back.jpg

264.07 KB

 CD.jpg

258.56 KB

 ffp.txt

0.96 KB

 front 1-4.jpg

488.06 KB

 front 2-3.jpg

432.91 KB

 info.txt

5.48 KB

 Preachin' The Blues-The Music Of Mississippi Fred McDowell (non compliant).cue

2.45 KB

 Preachin' The Blues-The Music Of Mississippi Fred McDowell.cue

2.45 KB

 thumb.jpg

25.54 KB

 V.A. - Preachin' The Blues-The Music Of Mississippi Fred McDowell (2002 Telarc).md5

1.79 KB

 V.A. - Preachin' The Blues-The Music Of Mississippi Fred McDowell.log

4.53 KB

 V.A. - Preachin' The Blues-The Music Of Mississippi Fred McDowell.m3u

1.25 KB
 

Announce URL:

Torrent description


EAC FLACV A    Preachin The Blues The Music Of Mississippi Fred McDowell (2002 Telarc)Colombo bt preview 0

Full scans 300 dpi
Label: Telarc
Number catalogue: CD-83536

TRACKLIST
1. Get Right Church - Paul Geremia
2. 61 Highway - Charlie Musselwhite
3. Kokomo Blues - Anders Osborne
4. Keep Your Lamp Trimmed And Burning - Colleen Sexton
5. You Gotta Move - Brian Stoltz
6. Train I Ride - Tab Benoit
7. I Heard Somebody Call - David Maxwell
8. Frisco Line - Sue Foley
9. Fred's Worried Life Blues - Kenny Neal
10. I Rolled And I Tumbled - Steve James
11. That's Alright - Johnny Sansone
12. Good Morning Little Schoolgirl - Scott Holt

--------------------------------------------------------------------------------------------------------------
Exact Audio Copy V0.99 prebeta 4 from 23. January 2008

EAC extraction logfile from 29. June 2008, 19:19

V.A. / Preachin' The Blues-The Music Of Mississippi Fred McDowell

Used drive : LITE-ON CD-RW SOHR-5238S Adapter: 1 ID: 1

Read mode : Secure
Utilize accurate stream : Yes
Defeat audio cache : Yes
Make use of C2 pointers : No


Track 1

Filename I:\EAC\01 - Get Right Church , Paul Geremia .wav

Pre-gap length 0:00:02.00

Peak level 99.8 %
Track quality 100.0 %
Test CRC B84596EB
Copy CRC B84596EB
Copy OK

Track 2

Filename I:\EAC\02 - 61 Highway , Charlie Musselwhite .wav

Pre-gap length 0:00:05.00

Peak level 99.8 %
Track quality 100.0 %
Test CRC 5D1F4339
Copy CRC 5D1F4339
Copy OK

Track 3

Filename I:\EAC\03 - Kokomo Blues , Anders Osborne .wav

Pre-gap length 0:00:04.60

Peak level 99.8 %
Track quality 99.9 %
Test CRC 437602CA
Copy CRC 437602CA
Copy OK

Track 4

Filename I:\EAC\04 - Keep Your Lamp Trimmed And Burning , Colleen Sexton, Gregg Hoover .wav

Pre-gap length 0:00:03.65

Peak level 99.8 %
Track quality 100.0 %
Test CRC AE8E810F
Copy CRC AE8E810F
Copy OK

Track 5

Filename I:\EAC\05 - You Gotta Move , Brian Stotz .wav

Pre-gap length 0:00:03.65

Peak level 99.7 %
Track quality 100.0 %
Test CRC FF40AD3B
Copy CRC FF40AD3B
Copy OK

Track 6

Filename I:\EAC\06 - Train I Ride , Tab Benoit .wav

Pre-gap length 0:00:03.72

Peak level 99.4 %
Track quality 100.0 %
Test CRC 85551DC1
Copy CRC 85551DC1
Copy OK

Track 7

Filename I:\EAC\07 - I Heard Somebody Call , David Maxwell .wav

Pre-gap length 0:00:02.58

Peak level 99.0 %
Track quality 100.0 %
Test CRC A2059A22
Copy CRC A2059A22
Copy OK

Track 8

Filename I:\EAC\08 - Frisco Line , Sue Foley .wav

Pre-gap length 0:00:02.73

Peak level 99.3 %
Track quality 100.0 %
Test CRC 75303D55
Copy CRC 75303D55
Copy OK

Track 9

Filename I:\EAC\09 - Fred's Worried Life Blues , Kenny Neal .wav

Pre-gap length 0:00:03.53

Peak level 99.6 %
Track quality 99.9 %
Test CRC FB278726
Copy CRC FB278726
Copy OK

Track 10

Filename I:\EAC\10 - I Rolled And I Tumbled , Steve James .wav

Pre-gap length 0:00:02.10

Peak level 99.4 %
Track quality 100.0 %
Test CRC B6FA0203
Copy CRC B6FA0203
Copy OK

Track 11

Filename I:\EAC\11 - That's Alright , Johnny Sansone, Gregg Hoover .wav

Pre-gap length 0:00:03.52

Peak level 99.8 %
Track quality 100.0 %
Test CRC F4206B03
Copy CRC F4206B03
Copy OK

Track 12

Filename I:\EAC\12 - Good Morning Little Schoolgirl , Scott Holt .wav

Pre-gap length 0:00:03.60

Peak level 99.8 %
Track quality 100.0 %
Test CRC 825C3667
Copy CRC 825C3667
Copy OK

No errors occurred

End of status report
----------------------------------------------------------------------------------------------------------------------------

More Info:http://colombo-bt.org/index.php?topic=78465.0

related torrents

Torrent name

health leech seeds Size
 


comments (0)

Main Menu