Two and a Half Men (English) | EdirneSinema Salonları | Search And Download Song Pk songpk download mp3

Horror

Scarecrows (1988)DVDRipXviDKooKoo

  • Download 5x Faster
  • Download torrent
  • Direct Download
  • Rate this torrent +  |  -
Scarecrows (1988)DVDRipXviDKooKoo

Anonymous and Free Direct Download


Torrent info

Name:Scarecrows (1988)DVDRipXviDKooKoo

Total Size: 784.06 MB

Magnet: Magnet Link

Seeds: 0

Leechers: 0

Stream: Watch Online @ Movie4u

Last Updated: 2017-05-12 06:17:42 (Update Now)

Torrent added: 2008-07-01 03:34:38





Torrent Files List


Subtitles (Size: 784.06 MB) (Files: 6)

 Subtitles

  Scarecrows (1988)[DVDRip][XviD][KooKoo].idx

150.08 KB

  Scarecrows (1988)[DVDRip][XviD][KooKoo].sub

11.18 MB

 KooKoo.nfo

6.55 KB

 Scarecrows (1988)[DVDRip][XviD][KooKoo].avi

772.72 MB

 Torrent downloaded from Demonoid.com.txt

0.05 KB

 tracked_by_h33t_com.txt

0.02 KB
 

tracker

leech seeds
 

Torrent description



±ÛÛÛÛÛ± ±ÛÛÛÛÛÛ±ÛÛÛÛÛÛ±ÛÛÛÛÛÛ±ÛÛÛÛÛ± ±ÛÛÛÛÛÛ±ÛÛÛÛÛÛ±ÛÛÛÛÛÛ
±ÛÛÛÛÛ±±ÛÛÛÛÛÛ±±ÛÛÛÛÛÛ±ÛÛÛÛÛÛ±ÛÛÛÛÛ±±ÛÛÛÛÛÛ±±ÛÛÛÛÛÛ±ÛÛÛÛÛÛ
±ÛÛÛÛÛ±ÛÛÛÛÛÛ± ±ÛÛÛÛÛÛ±ÛÛÛÛÛÛ±ÛÛÛÛÛ±ÛÛÛÛÛÛ± ±ÛÛÛÛÛÛ±ÛÛÛÛÛÛ
±ÛÛÛÛÛÛÛÛÛÛÛ± ±ÛÛÛÛÛÛ±ÛÛÛÛÛÛ±ÛÛÛÛÛÛÛÛÛÛÛ± ±ÛÛÛÛÛÛ±ÛÛÛÛÛÛ
±ÛÛÛÛÛÛÛÛÛÛ± ±ÛÛ±±ÛÛ±ÛÛ±±ÛÛ±ÛÛÛÛÛÛÛÛÛÛ± ±ÛÛ±±ÛÛ±ÛÛ±±ÛÛ
±ÛÛÛÛÛÛÛÛÛ± ±ÛÛ±±ÛÛ±ÛÛ±±ÛÛ±ÛÛÛÛÛÛÛÛÛ± ±ÛÛ±±ÛÛ±ÛÛ±±ÛÛ
±ÛÛÛÛÛÛÛÛÛ± ±ÛÛ±±ÛÛ±ÛÛ±±ÛÛ±ÛÛÛÛÛÛÛÛÛ± ±ÛÛ±±ÛÛ±ÛÛ±±ÛÛ
±ÛÛÛÛÛÛÛÛÛÛ± ±ÛÛÛÛÛÛ±ÛÛÛÛÛÛ±ÛÛÛÛÛÛÛÛÛÛ± ±ÛÛÛÛÛÛ±ÛÛÛÛÛÛ
±ÛÛÛÛÛÛÛÛÛÛÛ± ±ÛÛÛÛÛÛ±ÛÛÛÛÛÛ±ÛÛÛÛÛÛÛÛÛÛÛ± ±ÛÛÛÛÛÛ±ÛÛÛÛÛÛ
±ÛÛÛÛÛ±ÛÛÛÛÛÛ± ±ÛÛÛÛÛÛ±ÛÛÛÛÛÛ±ÛÛÛÛÛ ÛÛÛÛÛÛ± ±ÛÛÛÛÛÛ±ÛÛÛÛÛÛ
±ÛÛÛÛÛ±±ÛÛÛÛÛÛ±±ÛÛÛÛÛÛ±ÛÛÛÛÛÛ±ÛÛÛÛÛ ÛÛÛÛÛÛ±±ÛÛÛÛÛÛ±ÛÛÛÛÛÛ
±ÛÛÛÛÛ± ±ÛÛÛÛÛÛ ±±±±±±±±ÛÛÛÛÛ ÛÛÛÛÛÛ ±±±±±±±



*******************************************************************************
Scarecrows (1988)
*******************************************************************************

Five men heist the Camp Pendleton payroll and kidnap a pilot and his daughter, who
are forced to fly them to Mexico. Enroute a double cross has one of the thieves
parachute with the loot into an abandoned graveyard surrounded by strange
scarecrows. The rest of the team jump after their loot and their former partner.
Everything happens during the course of one very dark night.

http://www.imdb.com/title/tt0096046/

*******************************************************************************
File Information
*******************************************************************************

General
Complete name : Scarecrows (1988)[DVDRip][XviD][KooKoo].avi
Format : AVI
Format/Info : Audio Video Interleave
File size : 773 MiB
Duration : 1h 23mn
Overal bit rate : 1296 Kbps
Movie name : Scarecrows (1988)
Director : Ripped By KooKoo
Comment : Includes English Spanish French Subtitles
Product : DVD_VOLUME

Video
Format : MPEG-4 Visual
Format profile : [email protected]
Format settings, BVOP : No
Format settings, QPel : No
Format settings, GMC : No warppoints
Format settings, Matrix : Default
Codec ID : XVID
Codec ID/Hint : XviD
Duration : 1h 23mn
Bit rate : 1155 Kbps
Width : 608 pixels
Height : 334 pixels
Display aspect ratio : 16/9
Frame rate : 23.976 fps
Resolution : 8 bits
Colorimetry : 4:2:0
Scan type : Progressive
Bits/(Pixel*Frame) : 0.237
Stream size : 689 MiB
Writing library : XviD 1.1.2 (UTC 2006-11-01)

Audio
Format : MPEG Audio
Format version : Version 1
Format profile : Layer 3
Codec ID : 55
Codec ID/Hint : MP3
Duration : 1h 23mn
Bit rate mode : Constant
Bit rate : 128 Kbps
Channel(s) : 2 channels
Sampling rate : 48.0 KHz
Resolution : 16 bits
Stream size : 76.3 MiB
Writing library : LAME3.97
Language : english


*******************************************************************************
Screenshots
*******************************************************************************

Scarecrows (1988)DVDRipXviDKooKoo preview 0
Scarecrows (1988)DVDRipXviDKooKoo preview 1
Scarecrows (1988)DVDRipXviDKooKoo preview 2
Scarecrows (1988)DVDRipXviDKooKoo preview 3


*******************************************************************************
DVDCover
*******************************************************************************

Scarecrows (1988)DVDRipXviDKooKoo preview 4



Enjoy and keep this alive. The more you seed the quicker I can share my stuff with you.
~KooKoo

You can find me at h33t.com and DarksideRg

related torrents

Torrent name

health leech seeds Size
 


comments (0)

Main Menu