marvel defenders 1080p | Versie: Game.of.Thrones.S05E03.480p.HDTV.x264-mSD | Комедии

Comedy

Death Becomes Her (1992) Xvid Eng

  • Download 5x Faster
  • Download torrent
  • Direct Download
  • Rate this torrent +  |  -
Death Becomes Her (1992) Xvid Eng

Anonymous and Free Direct Download 300GB+


Torrent info

Name:Death Becomes Her (1992) Xvid Eng

Total Size: 573.63 MB

Magnet: Magnet Link

Seeds: 0

Leechers: 0

Stream: Watch Online @ Movie4u

Last Updated: 2015-09-05 14:00:04 (Update Now)

Torrent added: 2008-07-01 12:34:15



VPN For Torrents

Torrent Files List


Death Becomes Her.avi (Size: 573.63 MB) (Files: 3)

 Death Becomes Her.avi

573.63 MB

 info.txt

2.22 KB

 Torrent_downloaded_from_Demonoid.com.txt

0.05 KB
 

tracker

leech seeds
 

Torrent description

This is my first DVDRip, i hope you like it. Please leave feedback.

206Andy206

IMDB - Death Becomes Her (1992)

General
Complete name : C:\DVD\Death Becomes Her (1992) Xvid-Eng\Death Becomes Her.avi
Format : AVI
Format/Info : Audio Video Interleave
File size : 574 MiB
Duration : 1h 39mn
Overal bit rate : 809 Kbps
Writing application : VirtualDubMod 1.5.4.1 (build 2178/release)
Writing library : VirtualDubMod build 2178/release
IAS1 : English

Video
Format : MPEG-4 Visual
Format profile : Streaming [email protected]
Format settings, BVOP : Yes
Format settings, QPel : No
Format settings, GMC : No warppoints
Format settings, Matrix : Default
Muxing mode : Packet Bitstream
Codec ID : XVID
Codec ID/Hint : XviD
Duration : 1h 39mn
Bit rate : 610 Kbps
Width : 512 pixels
Height : 272 pixels
Display aspect ratio : 1.882
Frame rate : 25.000 fps
Resolution : 8 bits
Colorimetry : 4:2:0
Scan type : Progressive
Bits/(Pixel*Frame) : 0.175
Stream size : 432 MiB (75%)
Writing library : XviD 1.2.0.dev47 (UTC 2006-11-01)

Audio
Format : MPEG Audio
Format version : Version 1
Format profile : Layer 3
Codec ID : 55
Codec ID/Hint : MP3
Duration : 1h 39mn
Bit rate mode : Constant
Bit rate : 192 Kbps
Minimum bit rate : 192 Kbps
Channel(s) : 2 channels
Sampling rate : 48.0 KHz
Resolution : 16 bits
Stream size : 136 MiB (24%)
Writing library : LAME3.97
Encoding settings : CBR



COME JOIN THE DARKSIDE! wE HAVE COOKIES! www.darksiderg.com

related torrents

Torrent name

health leech seeds Size
 


comments (0)

Main Menu